<?xml version="1.0" encoding="UTF-8" standalone="no"?>
<!-- Generator: Adobe Illustrator 19.2.0, SVG Export Plug-In . SVG Version: 6.00 Build 0)  -->

<svg
   version="1.1"
   id="Layer_1"
   x="0px"
   y="0px"
   viewBox="0 0 384.42897 162.2"
   xml:space="preserve"
   sodipodi:docname="KTU_plus_logo_mechanika-2025.svg"
   inkscape:version="1.4 (86a8ad7, 2024-10-11)"
   width="384.42899"
   height="162.2"
   xmlns:inkscape="http://www.inkscape.org/namespaces/inkscape"
   xmlns:sodipodi="http://sodipodi.sourceforge.net/DTD/sodipodi-0.dtd"
   xmlns:xlink="http://www.w3.org/1999/xlink"
   xmlns="http://www.w3.org/2000/svg"
   xmlns:svg="http://www.w3.org/2000/svg"
   xmlns:rdf="http://www.w3.org/1999/02/22-rdf-syntax-ns#"
   xmlns:cc="http://creativecommons.org/ns#"
   xmlns:dc="http://purl.org/dc/elements/1.1/"><metadata
   id="metadata9"><rdf:RDF><cc:Work
       rdf:about=""><dc:format>image/svg+xml</dc:format><dc:type
         rdf:resource="http://purl.org/dc/dcmitype/StillImage" /></cc:Work></rdf:RDF></metadata><defs
   id="defs7"><linearGradient
     id="linearGradient4531"
     inkscape:swatch="solid"><stop
       style="stop-color:#000000;stop-opacity:1;"
       offset="0"
       id="stop4529" /></linearGradient><style
     id="style2164">.cls-1{fill:#d2ebe6;}.cls-2{fill:#ade0f0;}.cls-3{fill:#231f20;}</style><font
     id="FontID0"
     horiz-adv-x="721"
     font-variant="normal"
     style="fill-rule:nonzero"
     font-style="normal"
     font-weight="700"
     horiz-origin-x="0"
     horiz-origin-y="0"
     vert-origin-x="512"
     vert-origin-y="768"
     vert-adv-y="1024">
	<font-face
   font-family="Times New Roman"
   id="font-face626">
		<font-face-src>
			<font-face-name
   name="Times New Roman Bold" />
		</font-face-src>
	</font-face>
   <missing-glyph
   id="missing-glyph630"><path
     d="M0 0z"
     id="path628" /></missing-glyph>
   <glyph
   unicode="2"
   horiz-adv-x="499"
   d="M414.084 -1.37702l-389.73 1.34237 0.0259814 10.7477c119.956,141.677 192.852,237.28 218.573,286.272 25.7216,49.001 38.6431,96.9368 38.7643,143.799 0.155889,34.2782 -10.2194,62.7192 -31.299,85.3231 -21.0969,22.7684 -47.0178,34.1916 -77.5893,34.2955 -50.0749,0.233833 -89.1597,-24.7084 -116.925,-74.8006l-18.0744 6.33947c17.8493,62.4767 44.6015,108.576 80.5771,138.351 35.9497,29.9393 77.2862,44.7574 124.148,44.6275 33.4468,-0.251154 64.1309,-8.07157 91.7578,-23.825 27.6269,-15.7534 49.053,-37.1275 64.6678,-64.434 15.4243,-27.1506 23.2621,-52.725 23.1495,-76.4114 -0.216512,-43.3544 -12.2806,-87.315 -36.5472,-131.769 -33.083,-60.1471 -105.104,-143.712 -216.166,-251.215l142.95 -0.415703c35.2915,-0.207852 58.1205,1.25577 68.6863,4.06177 10.5485,2.97921 19.3475,7.91568 26.2239,14.8094 6.8591,7.05829 15.7967,21.7551 26.9947,44.1165l17.4682 -0.0346419 -37.6558 -191.18z"
   id="glyph632" />
   <glyph
   unicode="6"
   horiz-adv-x="499"
   d="M470.377 674.262l0.0779443 -13.6662c-59.0125,-14.8267 -106.212,-34.105 -141.85,-57.5576 -35.6465,-23.4439 -63.7758,-52.0062 -84.5523,-85.7128 -20.6639,-33.5074 -36.859,-75.2163 -48.2735,-125.066 14.3244,9.81233 26.2066,16.1431 35.6379,19.0098 21.2615,6.4434 42.5836,9.65644 63.975,9.63046 49.4427,-0.0433024 90.554,-18.0917 123.498,-54.102 32.9445,-36.0103 49.3994,-85.0633 49.3734,-147.168 -0.225173,-43.4929 -9.11083,-83.5217 -27.0727,-119.826 -17.9272,-36.4693 -43.415,-64.5899 -76.3162,-84.3271 -32.9098,-19.7459 -67.8982,-29.7055 -105.372,-29.6275 -40.7476,0.164549 -78.2301,11.3539 -112.63,33.6893 -34.4081,22.3354 -61.2729,54.9594 -80.5858,97.8808 -19.3215,42.9214 -28.9087,89.6273 -28.7615,140.127 0.17321,74.0991 18.1177,143.071 53.8336,206.908 35.7245,63.8451 86.2498,114.673 151.94,152.425 65.5339,37.7077 141.322,56.9167 227.078,57.3844zm-281.05 -321.468c-2.63279,-44.9046 -3.95784,-77.7105 -3.9665,-98.4091 -0.0433024,-44.9999 4.13971,-88.3369 12.6443,-130.332 8.49593,-41.9947 20.2569,-71.4403 35.2741,-88.3283 10.6524,-12.0814 23.3227,-18.0484 38.0368,-18.0744 14.9134,-0.147228 28.2938,8.58254 40.0114,25.9988 11.7176,17.4162 17.6068,52.6471 17.7627,106.048 0.17321,89.6706 -10.713,151.645 -32.4595,185.793 -13.8654,22.2921 -32.6673,33.3429 -56.4404,33.3255 -13.0167,0.0779443 -29.9306,-5.19629 -50.863,-16.0219z"
   id="glyph634" />
   <glyph
   unicode="C"
   horiz-adv-x="721"
   d="M668.468 675.985l-0.346419 -229.503 -19.079 0.00866048c-14.2465,59.8959 -40.8342,105.831 -79.763,137.806 -39.0761,31.9052 -83.2532,48.1176 -132.817,48.1176 -41.2239,0.129907 -79.1482,-11.709 -113.773,-35.5253 -34.5553,-23.5912 -59.74,-54.5697 -75.6926,-93.0049 -20.6466,-49.053 -31.1171,-103.77 -31.1085,-163.995 -0.147228,-59.1857 7.19686,-113.244 22.1016,-161.951 14.9047,-48.7066 38.288,-85.427 70.0806,-110.378 31.9485,-24.8816 73.1897,-37.5345 124.096,-37.5952 41.5184,0.017321 79.763,9.02422 114.431,27.2545 34.7459,18.0831 71.3277,49.4427 109.824,93.9316l-0.0866048 -57.0986c-37.1968,-38.5911 -76.039,-66.6164 -116.163,-84.0673 -40.1933,-17.295 -87.237,-25.9295 -140.828,-25.739 -70.7388,0.0606234 -133.38,14.3418 -188.236,42.6962 -54.6996,28.4324 -96.9714,69.1799 -126.668,122.329 -29.6275,52.9935 -44.4369,109.607 -44.2984,169.529 0.0433024,63.0656 16.7321,122.823 49.7718,179.497 33.109,56.527 77.8751,100.47 134.064,131.535 56.1113,31.2037 115.773,46.6454 179.055,46.5241 46.4375,-0.0952653 95.5598,-10.228 147.22,-30.4849 29.9826,-11.8475 49.0357,-17.6674 57.0812,-17.676 10.5138,-0.0692839 19.5727,3.79329 27.1246,11.3799 7.69051,7.66453 12.7396,19.7805 14.922,36.4173l19.0877 -0.00866048z"
   id="glyph636" />
   <glyph
   unicode="I"
   horiz-adv-x="389"
   d="M366.278 14.7575l-0.0519629 -17.9445 -346.151 2.99653 0.18187 18.0398 21.8764 -0.147228c19.2349,-0.164549 34.6506,3.10045 46.4808,9.7517 8.58254,4.59006 15.1125,12.4191 19.668,23.34 3.74999,7.71649 5.68994,28.1985 5.94109,61.5414l3.77597 435.406c0.337759,33.8105 -1.29907,55.0374 -4.82389,63.5593 -3.42955,8.38335 -10.5831,15.9873 -21.5473,22.344 -10.8343,6.46072 -25.5657,9.77769 -43.9693,9.90759l-21.9716 0.285796 0.0519629 17.9445 346.16 -2.99653 -0.190531 -18.0398 -21.8764 0.147228c-19.2349,0.164549 -34.6506,-3.10045 -46.4722,-9.7517 -8.45263,-4.49479 -15.2165,-12.2806 -20.2742,-23.3573 -3.52482,-7.75113 -5.59467,-28.3284 -5.81118,-61.4375l-3.91454 -435.51c-0.337759,-33.8019 1.4463,-54.9421 5.19629,-63.4987 3.52482,-8.52192 10.8169,-16.0306 21.7811,-22.396 10.8343,-6.45206 25.4705,-9.63046 43.9693,-9.89893l21.9716 -0.285796z"
   id="glyph638" />
   <glyph
   unicode="a"
   horiz-adv-x="499"
   d="M285.701 66.9629c-55.7215,-49.2002 -105.719,-73.5881 -149.939,-73.5188 -26.094,-0.00866048 -47.7712,8.69513 -64.9969,25.7303 -17.1737,17.1911 -25.713,38.4612 -25.6697,64.1828 0.0259814,34.8931 15.0433,66.2094 45.0432,93.9576 29.9999,27.7395 95.248,64.6765 196.056,110.698l-0.017321 46.0131c0.017321,34.3648 -1.8187,56.1546 -5.42146,65.1528 -3.81061,8.88566 -10.7996,16.758 -21.2182,23.3487 -10.3753,6.73786 -22.0929,10.0721 -35.1096,10.1501 -21.1402,0.0433024 -38.6344,-4.68532 -52.266,-14.0906 -8.5479,-5.87181 -12.8262,-12.6789 -12.8522,-20.4301 0.0866048,-6.90241 4.59006,-15.3291 13.6056,-25.4791 12.4624,-13.9867 18.5508,-27.5403 18.4728,-40.557 0,-15.866 -5.93243,-29.5149 -17.7453,-40.7822 -11.9168,-11.0594 -27.4104,-16.6454 -46.654,-16.7234 -20.6033,0.0433024 -37.6731,6.27885 -51.5732,18.6374 -13.6836,12.4711 -20.7072,26.8821 -20.5946,43.5882 -0.0346419,23.4526 9.2494,45.814 27.8521,67.0841 18.6114,21.2701 44.4889,37.5605 77.8058,48.8278 33.161,11.3193 67.7423,17.0438 103.475,16.8966 43.3717,0.0519629 77.546,-9.2494 102.765,-27.6269 25.1674,-18.5334 41.579,-38.4612 48.9577,-60.0431 4.50345,-13.5363 6.72053,-44.9739 6.71187,-94.1481l-0.381061 -177.193c0.00866048,-20.9844 0.831406,-33.9578 2.30369,-39.3965 1.68879,-5.34352 4.17435,-9.37064 7.37007,-11.8822 3.29098,-2.71939 7.07561,-4.01846 11.2846,-4.06177 8.48727,0.0692839 17.0871,6.10564 25.7996,18.0831l14.6362 -11.735c-16.2038,-24.0328 -33.135,-41.4751 -50.482,-52.4219 -17.5028,-10.8949 -37.318,-16.2384 -59.5062,-16.1778 -25.9295,-0.0606234 -46.3769,6.09698 -61.0131,18.3689 -14.4803,12.2113 -23.4699,30.6408 -26.7003,55.5483zm0.0866048 35.5773l0.242494 152.745c-39.4398,-22.907 -68.7816,-47.7019 -87.9126,-74.0818 -12.7136,-17.4769 -19.157,-35.1789 -19.1743,-53.1494 -0.0433024,-14.9653 5.30888,-28.0946 15.9959,-39.5351 8.08889,-8.77307 19.5814,-13.2592 34.2349,-13.1899 16.1864,-0.112586 35.1962,9.03288 56.6136,27.2112z"
   id="glyph640" />
   <glyph
   unicode="c"
   horiz-adv-x="443"
   d="M406.185 116.787l15.0866 -11.6917c-21.5906,-40.176 -48.3775,-70.2538 -80.4472,-89.8698 -32.0698,-19.6247 -66.1314,-29.3764 -102.202,-29.2638 -60.8832,0.0346419 -109.451,23.0455 -145.86,69.0847 -36.2874,45.8399 -54.5091,101.016 -54.3445,165.459 0.138568,62.061 16.8533,116.709 50.1269,163.761 40.0028,56.96 95.2826,85.2451 165.554,85.1066 47.0178,-0.0779443 84.6302,-12.0121 112.309,-35.8544 27.8868,-23.7124 41.5876,-50.3087 41.6742,-79.5812 -0.155889,-18.4382 -5.79386,-33.213 -16.9139,-44.333 -11.2759,-11.0768 -26.0594,-16.5588 -44.1685,-16.4809 -19.3302,0.017321 -35.1269,6.4001 -47.6067,19.0271 -12.4451,12.7915 -20.2136,35.456 -23.1408,67.9502 -1.78406,20.4214 -6.49536,34.8498 -14.0386,42.9214 -7.34409,8.20148 -16.1518,12.2806 -26.2586,12.2199 -15.7274,0.0433024 -28.9174,-8.20148 -40.098,-24.7776 -16.8966,-25.0115 -25.4185,-63.4121 -25.5398,-115.037 -0.147228,-42.904 6.61661,-83.972 20.3088,-123.23 13.519,-39.2147 32.243,-68.5044 55.8774,-87.6441 17.9618,-14.0733 39.0761,-21.1662 63.3688,-21.1316 16.0565,-0.112586 31.1085,3.5941 45.4849,11.0508 14.2205,7.49132 31.1864,21.7032 50.8284,42.3151z"
   id="glyph642" />
   <glyph
   unicode="e"
   horiz-adv-x="443"
   d="M419.445 245.04l-250.123 -0.433024c2.90992,-60.4329 19.105,-108.195 48.5853,-143.288 22.3094,-26.9428 49.4773,-40.3492 80.9495,-40.4012 19.5814,0.147228 37.1881,5.63797 53.0714,16.4896 15.9873,10.9902 32.9445,30.5195 51.0709,58.874l16.6281 -10.6697c-24.5698,-50.3867 -51.7464,-86.2584 -81.703,-107.269 -29.844,-20.8891 -64.3994,-31.5415 -103.805,-31.6281 -67.5518,-0.103926 -118.952,25.8862 -153.698,77.7798 -28.1812,41.8994 -42.1592,93.845 -42.2978,155.932 -0.0952653,76.2123 20.3695,136.792 61.3682,181.957 41.1286,45.0605 89.177,67.5864 144.491,67.7336 46.1777,0.0866048 86.2498,-18.7413 120.346,-56.5876 34.0877,-37.8463 52.3873,-94.0182 55.1153,-168.49zm-119.982 32.4075c-0.0259814,52.4739 -3.02251,88.4409 -8.73843,107.927 -5.71592,19.4861 -14.5323,34.1916 -26.7003,44.333 -6.75518,5.70726 -15.9006,8.61718 -27.2978,8.64316 -16.8706,0.0692839 -30.6754,-8.40067 -41.4664,-24.9249 -19.0098,-28.926 -28.6229,-68.5824 -28.4843,-119.021l-0.0433024 -17.1045 132.731 0.147228z"
   id="glyph644" />
   <glyph
   unicode="f"
   horiz-adv-x="332"
   d="M237.245 406.428l-2.71939 -316.645c-0.17321,-30.6494 2.87528,-49.8064 9.25806,-57.826 10.3493,-12.0814 29.4283,-17.7627 57.4623,-17.0352l-0.0433024 -17.5635 -269.021 2.38163 0.285796 17.5635c20.508,0.121247 34.9624,2.38163 43.7268,6.65991 8.53058,4.26962 14.5496,10.5052 17.8319,18.2217 3.29098,7.72515 5.12701,24.0242 5.28289,48.6546l2.84064 316.766 -66.3739 0.606234 0.346419 47.8665 66.3739 -0.614894 0.346419 33.7239 -0.277135 22.9763c0.36374,46.68 17.8319,85.6522 52.5345,116.544 34.59,31.0132 81.1141,46.0911 139.711,45.5801 40.0721,-0.242494 69.6822,-7.9763 88.8046,-23.2014 19.2349,-15.1039 28.8394,-31.7926 28.6835,-49.945 -0.216512,-14.6189 -6.23555,-27.3411 -18.4295,-38.0455 -12.0727,-10.5831 -28.1292,-15.6928 -47.9358,-15.5629 -16.9745,0.17321 -30.2511,4.65068 -40.1933,13.5537 -9.82099,8.79039 -14.7055,18.6027 -14.541,29.3331 0.0692839,2.95322 1.02194,8.98092 3.10911,18.0917 1.31639,5.43878 1.93129,10.6437 2.07852,15.5889 0,6.72053 -1.97459,11.8735 -5.80252,15.1039 -5.15299,4.97978 -11.5617,7.46534 -18.8712,7.56926 -9.43127,0.0692839 -17.3816,-3.83659 -23.8423,-11.4925 -6.34813,-7.77711 -9.6651,-20.3262 -9.83831,-37.5345l0.199191 -85.453 -0.519629 -58.1205 67.4305 -0.476327 -0.580252 -47.8578 -67.3179 0.588913z"
   id="glyph646" />
   <glyph
   unicode="h"
   horiz-adv-x="556"
   d="M221.275 661.566l-0.459006 -264.171c25.0721,26.4318 48.1869,44.9392 68.9721,55.9034 20.8631,10.8256 42.4364,16.2038 64.8757,16.2211 28.7008,-0.155889 53.21,-8.23612 73.5362,-24.6304 20.2482,-16.2471 33.7326,-35.3781 40.4618,-57.3844 6.49536,-21.9457 9.83831,-58.9606 9.78635,-110.993l-0.441685 -178.293c-0.0259814,-34.8065 3.18706,-56.553 9.81233,-65.1442 6.47804,-8.6778 19.564,-14.1686 39.4052,-16.403l-0.00866048 -17.5894 -231.373 0.329098 0.017321 17.5894c16.2297,2.28637 28.4843,8.72111 36.5992,19.59 5.97573,8.46129 8.94628,29.0559 8.85101,61.9311l0.459006 203.565c0.017321,37.7943 -1.3597,61.4115 -4.18301,71.0073 -3.05715,9.6651 -7.95898,17.0785 -15.0086,22.4653 -6.89374,5.46476 -14.8181,8.16684 -23.6171,8.16684 -13.0427,-0.0952653 -25.7563,-4.51211 -38.0628,-13.4064 -12.4538,-8.9636 -25.8256,-24.5698 -40.1846,-47.0351l-0.381061 -244.485c-0.0519629,-32.5807 2.33833,-53.0541 7.17088,-61.0737 6.19225,-11.0594 18.9232,-18.0398 38.0195,-20.6553l-0.017321 -17.5894 -231.296 0.554271 0.0952653 17.4422c19.0704,1.862 32.7366,8.08023 40.9294,18.4208 5.46476,7.27481 8.43531,28.2418 8.46995,63.057l0.727481 463.7c0.18187,34.512 -3.10911,56.0333 -9.28404,64.4773 -6.4001,8.53058 -19.7113,14.0906 -39.9335,16.6974l0.164549 18.0398 185.897 -0.303117z"
   id="glyph648" />
   <glyph
   unicode="i"
   horiz-adv-x="277"
   d="M142.318 677.709c21.1662,0.0866048 39.0674,-7.31811 53.7123,-22.0496 14.6535,-14.7228 22.0323,-32.5894 22.1535,-53.4265 -0.0346419,-20.8198 -7.41337,-38.5478 -22.1449,-53.2013 -14.7315,-14.6449 -32.5981,-22.0236 -53.4352,-22.1535 -20.8111,0.0433024 -38.5651,7.25748 -53.21,21.989 -14.6709,14.5583 -22.0669,32.2603 -22.0323,53.0801 -0.129907,20.8371 7.11026,38.7557 21.8591,53.5651 14.5843,14.8354 32.2776,22.2315 53.0974,22.1968zm68.7469 -221.024l0.597573 -361.601c0.0692839,-32.2516 3.9232,-52.8722 11.4059,-61.6886 7.45668,-8.97226 22.1102,-14.1339 43.9606,-15.3031l0.017321 -17.6327 -246.555 -0.459006 -0.0259814 17.6327c20.2395,0.71016 35.075,6.61661 44.8267,17.676 6.61661,7.41337 9.73438,27.3498 9.6651,59.5928l-0.372401 266.37c-0.0692839,32.243 -3.9232,52.8722 -11.3799,61.8445 -7.48266,8.81637 -21.963,13.952 -43.467,15.2425l0.0433024 18.1351 191.284 0.190531z"
   id="glyph650" />
   <glyph
   unicode="l"
   horiz-adv-x="277"
   d="M209.965 662.717l2.09584 -567.236c0.0519629,-32.2343 3.87124,-52.8116 11.4578,-61.7319 7.43069,-8.9636 22.0409,-13.9607 43.926,-15.3204l0 -17.5115 -246.495 -0.805425 0 17.5115c20.0837,0.727481 35.049,6.58197 44.8613,17.7193 6.49536,7.57792 9.65644,27.3844 9.60448,59.6188l-1.64549 472.525c-0.121247,31.8619 -4.05311,52.24 -11.4838,61.2036 -7.58658,8.9203 -22.0756,14.1252 -43.5536,15.2511l0.0259814 18.0398 191.206 0.736141z"
   id="glyph652" />
   <glyph
   unicode="n"
   horiz-adv-x="556"
   d="M218.634 457.265l0.121247 -59.0732c23.4006,25.4185 45.8486,44.0472 67.3353,55.6609 21.3741,11.735 44.4543,17.4422 69.2752,17.5981 29.5409,0.0606234 54.1453,-7.91568 73.7873,-24.4139 19.5294,-16.3683 32.6327,-36.7811 39.1973,-61.0997 5.31754,-18.5681 8.02827,-54.1973 8.12353,-106.896l0.805425 -177.739c0.0259814,-35.0836 3.21304,-57.0466 9.58715,-65.6465 6.36546,-8.5912 19.6939,-14.0127 39.9681,-16.2644l0.0692839 -17.6068 -231.01 -0.736141 -0.0692839 17.6068c17.2863,2.21708 29.4889,9.51787 37.0755,21.6252 5.16165,8.02827 7.64721,28.2938 7.65587,60.5454l-0.796764 203.132c-0.103926,37.4566 -1.76674,60.9698 -4.74594,70.7475 -2.97921,9.77769 -7.76845,17.3123 -14.8354,22.6558 -7.06695,5.33486 -14.8008,7.8897 -23.3054,8.01095 -27.8868,-0.18187 -53.9808,-20.2136 -77.8144,-60.3636l0.848727 -244.607c0.0952653,-34.1483 3.29964,-55.8774 9.63912,-64.945 6.56465,-9.08485 18.3429,-14.7488 35.5513,-17.0178l-0.0433024 -17.4769 -230.906 -0.866048 -0.0692839 17.6068c19.2782,1.95727 32.8319,8.2188 40.9987,18.6287 5.46476,7.17954 8.24478,28.3717 8.10621,63.5853l-0.995956 257.736c-0.0606234,34.616 -3.28232,56.1026 -9.6651,64.4686 -6.39144,8.35737 -19.6939,14.0127 -39.9595,16.4982l-0.0346419 18.0744 186.105 0.571592z"
   id="glyph654" />
   <glyph
   unicode="o"
   horiz-adv-x="499"
   d="M246.486 471.451c39.7776,0.225173 76.6626,-9.86429 111.001,-30.1471 34.3215,-20.4474 60.3722,-49.3301 78.2908,-87.0032 17.9099,-37.6731 27.0553,-78.9143 27.2545,-123.871 0.311777,-64.8497 -15.84,-119.021 -48.4727,-162.852 -39.284,-52.8896 -94.1221,-79.6245 -163.978,-79.9189 -68.695,-0.381061 -121.836,23.3833 -159.067,71.4317 -37.4219,47.8925 -56.2412,103.675 -56.6482,167.199 -0.277135,65.3433 18.4295,122.511 56.0939,171.33 37.6644,48.8278 89.5061,73.4409 155.525,73.8306zm2.08718 -34.7285c-16.5415,-0.00866048 -30.6928,-6.37412 -42.5923,-18.9058 -11.7523,-12.7136 -19.4861,-37.396 -23.0802,-74.4022 -3.42089,-37.0236 -5.00576,-88.3716 -4.75461,-154.044 0.242494,-34.7718 2.64145,-67.3526 7.37873,-97.5863 3.72401,-23.1495 11.5271,-40.5744 23.2188,-52.5865 11.8562,-12.0208 25.1414,-17.9618 40.1846,-17.8406 14.5323,-0.017321 26.6916,4.14837 36.452,12.3152 12.6356,11.146 21.0796,26.7609 25.1414,46.5328 6.33947,30.9612 9.37064,93.4033 8.76441,187.508 -0.311777,55.3232 -3.49884,93.308 -9.74304,113.955 -6.40876,20.6639 -15.5456,35.6725 -27.5923,45.0345 -8.5479,6.78116 -19.6766,10.0635 -33.3775,10.0202z"
   id="glyph656" />
   <glyph
   unicode="r"
   horiz-adv-x="443"
   d="M226.125 454.701l-0.649536 -103.519c30.5975,47.1044 57.3584,78.2215 80.1441,93.4206 22.8897,15.3464 44.8959,22.9156 66.1141,22.855 18.213,-0.103926 32.7106,-5.94109 43.5189,-17.1391 10.8602,-11.4232 16.2817,-27.2632 16.0652,-47.7885 -0.199191,-21.7292 -5.63797,-38.6691 -16.2211,-50.6811 -10.7217,-11.9168 -23.4526,-17.754 -38.3833,-17.7973 -17.3816,0.164549 -32.1997,5.81118 -44.818,16.9832 -12.6097,11.172 -20.0837,17.4162 -22.2748,18.6374 -3.29964,1.94861 -7.01499,2.97055 -11.3626,3.00519 -9.2927,0.0779443 -18.3083,-3.41223 -26.9168,-10.5398 -13.3198,-11.0248 -23.4872,-26.6743 -30.5888,-47.1044 -10.5311,-31.5155 -16.0306,-66.296 -16.2644,-104.298l-0.727481 -104.861 0.285796 -27.4104c-0.147228,-18.5854 0.926672,-30.407 3.24768,-35.6899 3.81061,-8.83369 9.52653,-15.3291 17.1131,-19.2609 7.62989,-4.15703 20.6033,-6.82446 38.7816,-7.89836l-0.112586 -17.6154 -246.503 1.69745 0.112586 17.6154c19.9018,1.58487 33.3862,6.73786 40.4358,16.0652 6.96303,9.19743 10.6957,33.6027 11.0421,73.3196l1.68013 252.289c0.242494,26.0681 -0.883369,42.7048 -3.60276,49.8324 -3.16108,9.20609 -7.82042,15.8054 -13.9261,20.1703 -6.20091,4.22632 -16.9659,7.24016 -32.6587,9.08485l0.155889 17.9878 186.313 -1.3597z"
   id="glyph658" />
   <glyph
   unicode="t"
   horiz-adv-x="333"
   d="M211.524 624.559l0.909351 -166.965 108.412 0.484987 0.207852 -48.2216 -108.36 -0.649536 1.46362 -281.708c0.0519629,-26.2413 1.32505,-43.2591 3.98382,-50.9756 2.44226,-7.62123 6.66857,-13.7442 12.8868,-18.4815 6.36546,-4.67666 11.9255,-6.99767 17.1911,-6.94571 21.1402,0.0519629 41.1113,16.273 59.766,48.6026l14.7575 -10.6004c-25.9988,-62.7192 -68.7469,-94.1828 -127.881,-94.4512 -29.0386,-0.129907 -53.6257,7.8031 -73.6054,23.8336 -20.1356,15.9873 -33.0138,33.9404 -38.5825,53.7037 -3.42955,10.9815 -5.15299,41.0594 -5.3695,89.8092l-1.32505 246.495 -59.5062 -0.216512 -0.216512 17.0265c40.8775,29.2291 75.6753,59.7227 104.298,91.7838 28.6229,32.0698 53.669,67.8376 74.7833,107.373l16.1864 0.103926z"
   id="glyph660" />
  </font><style
     type="text/css"
     id="style663">
   <![CDATA[
    @font-face { font-family:"Times New Roman";font-variant:normal;font-style:normal;font-weight:bold;src:url("#FontID0") format(svg)}
    .str3 {stroke:#2B2A29;stroke-width:100;stroke-miterlimit:22.9256}
    .str0 {stroke:#2B2A29;stroke-width:200;stroke-miterlimit:22.9256}
    .str2 {stroke:#2B2A29;stroke-width:75;stroke-miterlimit:22.9256}
    .str1 {stroke:#2B2A29;stroke-width:120;stroke-miterlimit:22.9256}
    .fil0 {fill:none;fill-rule:nonzero}
    .fil1 {fill:#2B2A29}
    .fil2 {fill:#2B2A29;fill-rule:nonzero}
    .fnt0 {font-weight:bold;font-size:1154.67px;font-family:'Times New Roman'}
   ]]>
  </style><font
     id="FontID0-5"
     horiz-adv-x="721"
     font-variant="normal"
     style="fill-rule:nonzero"
     font-style="normal"
     font-weight="700"
     horiz-origin-x="0"
     horiz-origin-y="0"
     vert-origin-x="512"
     vert-origin-y="768"
     vert-adv-y="1024">
	<font-face
   font-family="Times New Roman"
   id="font-face1659">
		<font-face-src>
			<font-face-name
   name="Times New Roman Bold" />
		</font-face-src>
	</font-face>
   <missing-glyph
   id="missing-glyph1663"><path
     d="M0 0z"
     id="path1661" /></missing-glyph>
   <glyph
   unicode="2"
   horiz-adv-x="499"
   d="M414.084 -1.37702l-389.73 1.34237 0.0259814 10.7477c119.956,141.677 192.852,237.28 218.573,286.272 25.7216,49.001 38.6431,96.9368 38.7643,143.799 0.155889,34.2782 -10.2194,62.7192 -31.299,85.3231 -21.0969,22.7684 -47.0178,34.1916 -77.5893,34.2955 -50.0749,0.233833 -89.1597,-24.7084 -116.925,-74.8006l-18.0744 6.33947c17.8493,62.4767 44.6015,108.576 80.5771,138.351 35.9497,29.9393 77.2862,44.7574 124.148,44.6275 33.4468,-0.251154 64.1309,-8.07157 91.7578,-23.825 27.6269,-15.7534 49.053,-37.1275 64.6678,-64.434 15.4243,-27.1506 23.2621,-52.725 23.1495,-76.4114 -0.216512,-43.3544 -12.2806,-87.315 -36.5472,-131.769 -33.083,-60.1471 -105.104,-143.712 -216.166,-251.215l142.95 -0.415703c35.2915,-0.207852 58.1205,1.25577 68.6863,4.06177 10.5485,2.97921 19.3475,7.91568 26.2239,14.8094 6.8591,7.05829 15.7967,21.7551 26.9947,44.1165l17.4682 -0.0346419 -37.6558 -191.18z"
   id="glyph1665" />
   <glyph
   unicode="6"
   horiz-adv-x="499"
   d="M470.377 674.262l0.0779443 -13.6662c-59.0125,-14.8267 -106.212,-34.105 -141.85,-57.5576 -35.6465,-23.4439 -63.7758,-52.0062 -84.5523,-85.7128 -20.6639,-33.5074 -36.859,-75.2163 -48.2735,-125.066 14.3244,9.81233 26.2066,16.1431 35.6379,19.0098 21.2615,6.4434 42.5836,9.65644 63.975,9.63046 49.4427,-0.0433024 90.554,-18.0917 123.498,-54.102 32.9445,-36.0103 49.3994,-85.0633 49.3734,-147.168 -0.225173,-43.4929 -9.11083,-83.5217 -27.0727,-119.826 -17.9272,-36.4693 -43.415,-64.5899 -76.3162,-84.3271 -32.9098,-19.7459 -67.8982,-29.7055 -105.372,-29.6275 -40.7476,0.164549 -78.2301,11.3539 -112.63,33.6893 -34.4081,22.3354 -61.2729,54.9594 -80.5858,97.8808 -19.3215,42.9214 -28.9087,89.6273 -28.7615,140.127 0.17321,74.0991 18.1177,143.071 53.8336,206.908 35.7245,63.8451 86.2498,114.673 151.94,152.425 65.5339,37.7077 141.322,56.9167 227.078,57.3844zm-281.05 -321.468c-2.63279,-44.9046 -3.95784,-77.7105 -3.9665,-98.4091 -0.0433024,-44.9999 4.13971,-88.3369 12.6443,-130.332 8.49593,-41.9947 20.2569,-71.4403 35.2741,-88.3283 10.6524,-12.0814 23.3227,-18.0484 38.0368,-18.0744 14.9134,-0.147228 28.2938,8.58254 40.0114,25.9988 11.7176,17.4162 17.6068,52.6471 17.7627,106.048 0.17321,89.6706 -10.713,151.645 -32.4595,185.793 -13.8654,22.2921 -32.6673,33.3429 -56.4404,33.3255 -13.0167,0.0779443 -29.9306,-5.19629 -50.863,-16.0219z"
   id="glyph1667" />
   <glyph
   unicode="C"
   horiz-adv-x="721"
   d="M668.468 675.985l-0.346419 -229.503 -19.079 0.00866048c-14.2465,59.8959 -40.8342,105.831 -79.763,137.806 -39.0761,31.9052 -83.2532,48.1176 -132.817,48.1176 -41.2239,0.129907 -79.1482,-11.709 -113.773,-35.5253 -34.5553,-23.5912 -59.74,-54.5697 -75.6926,-93.0049 -20.6466,-49.053 -31.1171,-103.77 -31.1085,-163.995 -0.147228,-59.1857 7.19686,-113.244 22.1016,-161.951 14.9047,-48.7066 38.288,-85.427 70.0806,-110.378 31.9485,-24.8816 73.1897,-37.5345 124.096,-37.5952 41.5184,0.017321 79.763,9.02422 114.431,27.2545 34.7459,18.0831 71.3277,49.4427 109.824,93.9316l-0.0866048 -57.0986c-37.1968,-38.5911 -76.039,-66.6164 -116.163,-84.0673 -40.1933,-17.295 -87.237,-25.9295 -140.828,-25.739 -70.7388,0.0606234 -133.38,14.3418 -188.236,42.6962 -54.6996,28.4324 -96.9714,69.1799 -126.668,122.329 -29.6275,52.9935 -44.4369,109.607 -44.2984,169.529 0.0433024,63.0656 16.7321,122.823 49.7718,179.497 33.109,56.527 77.8751,100.47 134.064,131.535 56.1113,31.2037 115.773,46.6454 179.055,46.5241 46.4375,-0.0952653 95.5598,-10.228 147.22,-30.4849 29.9826,-11.8475 49.0357,-17.6674 57.0812,-17.676 10.5138,-0.0692839 19.5727,3.79329 27.1246,11.3799 7.69051,7.66453 12.7396,19.7805 14.922,36.4173l19.0877 -0.00866048z"
   id="glyph1669" />
   <glyph
   unicode="I"
   horiz-adv-x="389"
   d="M366.278 14.7575l-0.0519629 -17.9445 -346.151 2.99653 0.18187 18.0398 21.8764 -0.147228c19.2349,-0.164549 34.6506,3.10045 46.4808,9.7517 8.58254,4.59006 15.1125,12.4191 19.668,23.34 3.74999,7.71649 5.68994,28.1985 5.94109,61.5414l3.77597 435.406c0.337759,33.8105 -1.29907,55.0374 -4.82389,63.5593 -3.42955,8.38335 -10.5831,15.9873 -21.5473,22.344 -10.8343,6.46072 -25.5657,9.77769 -43.9693,9.90759l-21.9716 0.285796 0.0519629 17.9445 346.16 -2.99653 -0.190531 -18.0398 -21.8764 0.147228c-19.2349,0.164549 -34.6506,-3.10045 -46.4722,-9.7517 -8.45263,-4.49479 -15.2165,-12.2806 -20.2742,-23.3573 -3.52482,-7.75113 -5.59467,-28.3284 -5.81118,-61.4375l-3.91454 -435.51c-0.337759,-33.8019 1.4463,-54.9421 5.19629,-63.4987 3.52482,-8.52192 10.8169,-16.0306 21.7811,-22.396 10.8343,-6.45206 25.4705,-9.63046 43.9693,-9.89893l21.9716 -0.285796z"
   id="glyph1671" />
   <glyph
   unicode="a"
   horiz-adv-x="499"
   d="M285.701 66.9629c-55.7215,-49.2002 -105.719,-73.5881 -149.939,-73.5188 -26.094,-0.00866048 -47.7712,8.69513 -64.9969,25.7303 -17.1737,17.1911 -25.713,38.4612 -25.6697,64.1828 0.0259814,34.8931 15.0433,66.2094 45.0432,93.9576 29.9999,27.7395 95.248,64.6765 196.056,110.698l-0.017321 46.0131c0.017321,34.3648 -1.8187,56.1546 -5.42146,65.1528 -3.81061,8.88566 -10.7996,16.758 -21.2182,23.3487 -10.3753,6.73786 -22.0929,10.0721 -35.1096,10.1501 -21.1402,0.0433024 -38.6344,-4.68532 -52.266,-14.0906 -8.5479,-5.87181 -12.8262,-12.6789 -12.8522,-20.4301 0.0866048,-6.90241 4.59006,-15.3291 13.6056,-25.4791 12.4624,-13.9867 18.5508,-27.5403 18.4728,-40.557 0,-15.866 -5.93243,-29.5149 -17.7453,-40.7822 -11.9168,-11.0594 -27.4104,-16.6454 -46.654,-16.7234 -20.6033,0.0433024 -37.6731,6.27885 -51.5732,18.6374 -13.6836,12.4711 -20.7072,26.8821 -20.5946,43.5882 -0.0346419,23.4526 9.2494,45.814 27.8521,67.0841 18.6114,21.2701 44.4889,37.5605 77.8058,48.8278 33.161,11.3193 67.7423,17.0438 103.475,16.8966 43.3717,0.0519629 77.546,-9.2494 102.765,-27.6269 25.1674,-18.5334 41.579,-38.4612 48.9577,-60.0431 4.50345,-13.5363 6.72053,-44.9739 6.71187,-94.1481l-0.381061 -177.193c0.00866048,-20.9844 0.831406,-33.9578 2.30369,-39.3965 1.68879,-5.34352 4.17435,-9.37064 7.37007,-11.8822 3.29098,-2.71939 7.07561,-4.01846 11.2846,-4.06177 8.48727,0.0692839 17.0871,6.10564 25.7996,18.0831l14.6362 -11.735c-16.2038,-24.0328 -33.135,-41.4751 -50.482,-52.4219 -17.5028,-10.8949 -37.318,-16.2384 -59.5062,-16.1778 -25.9295,-0.0606234 -46.3769,6.09698 -61.0131,18.3689 -14.4803,12.2113 -23.4699,30.6408 -26.7003,55.5483zm0.0866048 35.5773l0.242494 152.745c-39.4398,-22.907 -68.7816,-47.7019 -87.9126,-74.0818 -12.7136,-17.4769 -19.157,-35.1789 -19.1743,-53.1494 -0.0433024,-14.9653 5.30888,-28.0946 15.9959,-39.5351 8.08889,-8.77307 19.5814,-13.2592 34.2349,-13.1899 16.1864,-0.112586 35.1962,9.03288 56.6136,27.2112z"
   id="glyph1673" />
   <glyph
   unicode="c"
   horiz-adv-x="443"
   d="M406.185 116.787l15.0866 -11.6917c-21.5906,-40.176 -48.3775,-70.2538 -80.4472,-89.8698 -32.0698,-19.6247 -66.1314,-29.3764 -102.202,-29.2638 -60.8832,0.0346419 -109.451,23.0455 -145.86,69.0847 -36.2874,45.8399 -54.5091,101.016 -54.3445,165.459 0.138568,62.061 16.8533,116.709 50.1269,163.761 40.0028,56.96 95.2826,85.2451 165.554,85.1066 47.0178,-0.0779443 84.6302,-12.0121 112.309,-35.8544 27.8868,-23.7124 41.5876,-50.3087 41.6742,-79.5812 -0.155889,-18.4382 -5.79386,-33.213 -16.9139,-44.333 -11.2759,-11.0768 -26.0594,-16.5588 -44.1685,-16.4809 -19.3302,0.017321 -35.1269,6.4001 -47.6067,19.0271 -12.4451,12.7915 -20.2136,35.456 -23.1408,67.9502 -1.78406,20.4214 -6.49536,34.8498 -14.0386,42.9214 -7.34409,8.20148 -16.1518,12.2806 -26.2586,12.2199 -15.7274,0.0433024 -28.9174,-8.20148 -40.098,-24.7776 -16.8966,-25.0115 -25.4185,-63.4121 -25.5398,-115.037 -0.147228,-42.904 6.61661,-83.972 20.3088,-123.23 13.519,-39.2147 32.243,-68.5044 55.8774,-87.6441 17.9618,-14.0733 39.0761,-21.1662 63.3688,-21.1316 16.0565,-0.112586 31.1085,3.5941 45.4849,11.0508 14.2205,7.49132 31.1864,21.7032 50.8284,42.3151z"
   id="glyph1675" />
   <glyph
   unicode="e"
   horiz-adv-x="443"
   d="M419.445 245.04l-250.123 -0.433024c2.90992,-60.4329 19.105,-108.195 48.5853,-143.288 22.3094,-26.9428 49.4773,-40.3492 80.9495,-40.4012 19.5814,0.147228 37.1881,5.63797 53.0714,16.4896 15.9873,10.9902 32.9445,30.5195 51.0709,58.874l16.6281 -10.6697c-24.5698,-50.3867 -51.7464,-86.2584 -81.703,-107.269 -29.844,-20.8891 -64.3994,-31.5415 -103.805,-31.6281 -67.5518,-0.103926 -118.952,25.8862 -153.698,77.7798 -28.1812,41.8994 -42.1592,93.845 -42.2978,155.932 -0.0952653,76.2123 20.3695,136.792 61.3682,181.957 41.1286,45.0605 89.177,67.5864 144.491,67.7336 46.1777,0.0866048 86.2498,-18.7413 120.346,-56.5876 34.0877,-37.8463 52.3873,-94.0182 55.1153,-168.49zm-119.982 32.4075c-0.0259814,52.4739 -3.02251,88.4409 -8.73843,107.927 -5.71592,19.4861 -14.5323,34.1916 -26.7003,44.333 -6.75518,5.70726 -15.9006,8.61718 -27.2978,8.64316 -16.8706,0.0692839 -30.6754,-8.40067 -41.4664,-24.9249 -19.0098,-28.926 -28.6229,-68.5824 -28.4843,-119.021l-0.0433024 -17.1045 132.731 0.147228z"
   id="glyph1677" />
   <glyph
   unicode="f"
   horiz-adv-x="332"
   d="M237.245 406.428l-2.71939 -316.645c-0.17321,-30.6494 2.87528,-49.8064 9.25806,-57.826 10.3493,-12.0814 29.4283,-17.7627 57.4623,-17.0352l-0.0433024 -17.5635 -269.021 2.38163 0.285796 17.5635c20.508,0.121247 34.9624,2.38163 43.7268,6.65991 8.53058,4.26962 14.5496,10.5052 17.8319,18.2217 3.29098,7.72515 5.12701,24.0242 5.28289,48.6546l2.84064 316.766 -66.3739 0.606234 0.346419 47.8665 66.3739 -0.614894 0.346419 33.7239 -0.277135 22.9763c0.36374,46.68 17.8319,85.6522 52.5345,116.544 34.59,31.0132 81.1141,46.0911 139.711,45.5801 40.0721,-0.242494 69.6822,-7.9763 88.8046,-23.2014 19.2349,-15.1039 28.8394,-31.7926 28.6835,-49.945 -0.216512,-14.6189 -6.23555,-27.3411 -18.4295,-38.0455 -12.0727,-10.5831 -28.1292,-15.6928 -47.9358,-15.5629 -16.9745,0.17321 -30.2511,4.65068 -40.1933,13.5537 -9.82099,8.79039 -14.7055,18.6027 -14.541,29.3331 0.0692839,2.95322 1.02194,8.98092 3.10911,18.0917 1.31639,5.43878 1.93129,10.6437 2.07852,15.5889 0,6.72053 -1.97459,11.8735 -5.80252,15.1039 -5.15299,4.97978 -11.5617,7.46534 -18.8712,7.56926 -9.43127,0.0692839 -17.3816,-3.83659 -23.8423,-11.4925 -6.34813,-7.77711 -9.6651,-20.3262 -9.83831,-37.5345l0.199191 -85.453 -0.519629 -58.1205 67.4305 -0.476327 -0.580252 -47.8578 -67.3179 0.588913z"
   id="glyph1679" />
   <glyph
   unicode="h"
   horiz-adv-x="556"
   d="M221.275 661.566l-0.459006 -264.171c25.0721,26.4318 48.1869,44.9392 68.9721,55.9034 20.8631,10.8256 42.4364,16.2038 64.8757,16.2211 28.7008,-0.155889 53.21,-8.23612 73.5362,-24.6304 20.2482,-16.2471 33.7326,-35.3781 40.4618,-57.3844 6.49536,-21.9457 9.83831,-58.9606 9.78635,-110.993l-0.441685 -178.293c-0.0259814,-34.8065 3.18706,-56.553 9.81233,-65.1442 6.47804,-8.6778 19.564,-14.1686 39.4052,-16.403l-0.00866048 -17.5894 -231.373 0.329098 0.017321 17.5894c16.2297,2.28637 28.4843,8.72111 36.5992,19.59 5.97573,8.46129 8.94628,29.0559 8.85101,61.9311l0.459006 203.565c0.017321,37.7943 -1.3597,61.4115 -4.18301,71.0073 -3.05715,9.6651 -7.95898,17.0785 -15.0086,22.4653 -6.89374,5.46476 -14.8181,8.16684 -23.6171,8.16684 -13.0427,-0.0952653 -25.7563,-4.51211 -38.0628,-13.4064 -12.4538,-8.9636 -25.8256,-24.5698 -40.1846,-47.0351l-0.381061 -244.485c-0.0519629,-32.5807 2.33833,-53.0541 7.17088,-61.0737 6.19225,-11.0594 18.9232,-18.0398 38.0195,-20.6553l-0.017321 -17.5894 -231.296 0.554271 0.0952653 17.4422c19.0704,1.862 32.7366,8.08023 40.9294,18.4208 5.46476,7.27481 8.43531,28.2418 8.46995,63.057l0.727481 463.7c0.18187,34.512 -3.10911,56.0333 -9.28404,64.4773 -6.4001,8.53058 -19.7113,14.0906 -39.9335,16.6974l0.164549 18.0398 185.897 -0.303117z"
   id="glyph1681" />
   <glyph
   unicode="i"
   horiz-adv-x="277"
   d="M142.318 677.709c21.1662,0.0866048 39.0674,-7.31811 53.7123,-22.0496 14.6535,-14.7228 22.0323,-32.5894 22.1535,-53.4265 -0.0346419,-20.8198 -7.41337,-38.5478 -22.1449,-53.2013 -14.7315,-14.6449 -32.5981,-22.0236 -53.4352,-22.1535 -20.8111,0.0433024 -38.5651,7.25748 -53.21,21.989 -14.6709,14.5583 -22.0669,32.2603 -22.0323,53.0801 -0.129907,20.8371 7.11026,38.7557 21.8591,53.5651 14.5843,14.8354 32.2776,22.2315 53.0974,22.1968zm68.7469 -221.024l0.597573 -361.601c0.0692839,-32.2516 3.9232,-52.8722 11.4059,-61.6886 7.45668,-8.97226 22.1102,-14.1339 43.9606,-15.3031l0.017321 -17.6327 -246.555 -0.459006 -0.0259814 17.6327c20.2395,0.71016 35.075,6.61661 44.8267,17.676 6.61661,7.41337 9.73438,27.3498 9.6651,59.5928l-0.372401 266.37c-0.0692839,32.243 -3.9232,52.8722 -11.3799,61.8445 -7.48266,8.81637 -21.963,13.952 -43.467,15.2425l0.0433024 18.1351 191.284 0.190531z"
   id="glyph1683" />
   <glyph
   unicode="l"
   horiz-adv-x="277"
   d="M209.965 662.717l2.09584 -567.236c0.0519629,-32.2343 3.87124,-52.8116 11.4578,-61.7319 7.43069,-8.9636 22.0409,-13.9607 43.926,-15.3204l0 -17.5115 -246.495 -0.805425 0 17.5115c20.0837,0.727481 35.049,6.58197 44.8613,17.7193 6.49536,7.57792 9.65644,27.3844 9.60448,59.6188l-1.64549 472.525c-0.121247,31.8619 -4.05311,52.24 -11.4838,61.2036 -7.58658,8.9203 -22.0756,14.1252 -43.5536,15.2511l0.0259814 18.0398 191.206 0.736141z"
   id="glyph1685" />
   <glyph
   unicode="n"
   horiz-adv-x="556"
   d="M218.634 457.265l0.121247 -59.0732c23.4006,25.4185 45.8486,44.0472 67.3353,55.6609 21.3741,11.735 44.4543,17.4422 69.2752,17.5981 29.5409,0.0606234 54.1453,-7.91568 73.7873,-24.4139 19.5294,-16.3683 32.6327,-36.7811 39.1973,-61.0997 5.31754,-18.5681 8.02827,-54.1973 8.12353,-106.896l0.805425 -177.739c0.0259814,-35.0836 3.21304,-57.0466 9.58715,-65.6465 6.36546,-8.5912 19.6939,-14.0127 39.9681,-16.2644l0.0692839 -17.6068 -231.01 -0.736141 -0.0692839 17.6068c17.2863,2.21708 29.4889,9.51787 37.0755,21.6252 5.16165,8.02827 7.64721,28.2938 7.65587,60.5454l-0.796764 203.132c-0.103926,37.4566 -1.76674,60.9698 -4.74594,70.7475 -2.97921,9.77769 -7.76845,17.3123 -14.8354,22.6558 -7.06695,5.33486 -14.8008,7.8897 -23.3054,8.01095 -27.8868,-0.18187 -53.9808,-20.2136 -77.8144,-60.3636l0.848727 -244.607c0.0952653,-34.1483 3.29964,-55.8774 9.63912,-64.945 6.56465,-9.08485 18.3429,-14.7488 35.5513,-17.0178l-0.0433024 -17.4769 -230.906 -0.866048 -0.0692839 17.6068c19.2782,1.95727 32.8319,8.2188 40.9987,18.6287 5.46476,7.17954 8.24478,28.3717 8.10621,63.5853l-0.995956 257.736c-0.0606234,34.616 -3.28232,56.1026 -9.6651,64.4686 -6.39144,8.35737 -19.6939,14.0127 -39.9595,16.4982l-0.0346419 18.0744 186.105 0.571592z"
   id="glyph1687" />
   <glyph
   unicode="o"
   horiz-adv-x="499"
   d="M246.486 471.451c39.7776,0.225173 76.6626,-9.86429 111.001,-30.1471 34.3215,-20.4474 60.3722,-49.3301 78.2908,-87.0032 17.9099,-37.6731 27.0553,-78.9143 27.2545,-123.871 0.311777,-64.8497 -15.84,-119.021 -48.4727,-162.852 -39.284,-52.8896 -94.1221,-79.6245 -163.978,-79.9189 -68.695,-0.381061 -121.836,23.3833 -159.067,71.4317 -37.4219,47.8925 -56.2412,103.675 -56.6482,167.199 -0.277135,65.3433 18.4295,122.511 56.0939,171.33 37.6644,48.8278 89.5061,73.4409 155.525,73.8306zm2.08718 -34.7285c-16.5415,-0.00866048 -30.6928,-6.37412 -42.5923,-18.9058 -11.7523,-12.7136 -19.4861,-37.396 -23.0802,-74.4022 -3.42089,-37.0236 -5.00576,-88.3716 -4.75461,-154.044 0.242494,-34.7718 2.64145,-67.3526 7.37873,-97.5863 3.72401,-23.1495 11.5271,-40.5744 23.2188,-52.5865 11.8562,-12.0208 25.1414,-17.9618 40.1846,-17.8406 14.5323,-0.017321 26.6916,4.14837 36.452,12.3152 12.6356,11.146 21.0796,26.7609 25.1414,46.5328 6.33947,30.9612 9.37064,93.4033 8.76441,187.508 -0.311777,55.3232 -3.49884,93.308 -9.74304,113.955 -6.40876,20.6639 -15.5456,35.6725 -27.5923,45.0345 -8.5479,6.78116 -19.6766,10.0635 -33.3775,10.0202z"
   id="glyph1689" />
   <glyph
   unicode="r"
   horiz-adv-x="443"
   d="M226.125 454.701l-0.649536 -103.519c30.5975,47.1044 57.3584,78.2215 80.1441,93.4206 22.8897,15.3464 44.8959,22.9156 66.1141,22.855 18.213,-0.103926 32.7106,-5.94109 43.5189,-17.1391 10.8602,-11.4232 16.2817,-27.2632 16.0652,-47.7885 -0.199191,-21.7292 -5.63797,-38.6691 -16.2211,-50.6811 -10.7217,-11.9168 -23.4526,-17.754 -38.3833,-17.7973 -17.3816,0.164549 -32.1997,5.81118 -44.818,16.9832 -12.6097,11.172 -20.0837,17.4162 -22.2748,18.6374 -3.29964,1.94861 -7.01499,2.97055 -11.3626,3.00519 -9.2927,0.0779443 -18.3083,-3.41223 -26.9168,-10.5398 -13.3198,-11.0248 -23.4872,-26.6743 -30.5888,-47.1044 -10.5311,-31.5155 -16.0306,-66.296 -16.2644,-104.298l-0.727481 -104.861 0.285796 -27.4104c-0.147228,-18.5854 0.926672,-30.407 3.24768,-35.6899 3.81061,-8.83369 9.52653,-15.3291 17.1131,-19.2609 7.62989,-4.15703 20.6033,-6.82446 38.7816,-7.89836l-0.112586 -17.6154 -246.503 1.69745 0.112586 17.6154c19.9018,1.58487 33.3862,6.73786 40.4358,16.0652 6.96303,9.19743 10.6957,33.6027 11.0421,73.3196l1.68013 252.289c0.242494,26.0681 -0.883369,42.7048 -3.60276,49.8324 -3.16108,9.20609 -7.82042,15.8054 -13.9261,20.1703 -6.20091,4.22632 -16.9659,7.24016 -32.6587,9.08485l0.155889 17.9878 186.313 -1.3597z"
   id="glyph1691" />
   <glyph
   unicode="t"
   horiz-adv-x="333"
   d="M211.524 624.559l0.909351 -166.965 108.412 0.484987 0.207852 -48.2216 -108.36 -0.649536 1.46362 -281.708c0.0519629,-26.2413 1.32505,-43.2591 3.98382,-50.9756 2.44226,-7.62123 6.66857,-13.7442 12.8868,-18.4815 6.36546,-4.67666 11.9255,-6.99767 17.1911,-6.94571 21.1402,0.0519629 41.1113,16.273 59.766,48.6026l14.7575 -10.6004c-25.9988,-62.7192 -68.7469,-94.1828 -127.881,-94.4512 -29.0386,-0.129907 -53.6257,7.8031 -73.6054,23.8336 -20.1356,15.9873 -33.0138,33.9404 -38.5825,53.7037 -3.42955,10.9815 -5.15299,41.0594 -5.3695,89.8092l-1.32505 246.495 -59.5062 -0.216512 -0.216512 17.0265c40.8775,29.2291 75.6753,59.7227 104.298,91.7838 28.6229,32.0698 53.669,67.8376 74.7833,107.373l16.1864 0.103926z"
   id="glyph1693" />
  </font>
</defs>
</svg>
